Details for this torrent 

Type SE
Magnet link Uploaded Today 13.29, ULed by piratebay HIDE MY IP NOW
Star Wars: Episode I - The Phantom Menace (1999) 1080p BrRip x26
Type:
Video > HD - Movies
Files:
3
Size:
1.8 GiB (1933727349 Bytes)

Info:
IMDB
Spoken language(s):
English
Texted language(s):
English
Tag(s):
YIFY 720p 1080p movies x264 Bluray BrRip

Uploaded:
2013-03-23 08:33:34 GMT
By:
YIFY VIP

Seeders:
395
Leechers:
114
Comments
14  

Info Hash:
 
F105DD901E63E3319C2B259B055FBB6E08A65AB5
 




(Problems with magnets links are fixed by upgrading your torrent client!)
-------------------------------------------------------------------------------

-------------------------------------------------------------------------------


Get all YIFYs newest releases first at  http://www.yify-torrents.org 

Also there you will find a list of upcoming uploads, instant chat, account registration and an effective movie search.


-------------------------------------------------------------------------------

-------------------------------------------------------------------------------	


 
http://www.imdb.com/title/tt0120915/


IMDB RATING: 6.5

FORMAT.......................: MP4
CODEC........................: X264
GENRE........................: Action
FILE SIZE....................: 1.80 GB
RESOLUTION...................: 1920*816
FRAME RATE...................: 23.976 fps
LANGUAGE.....................: English
SUBTITLES....................: English
RUNTIME......................: 136 mins



The evil Trade Federation, led by Nute Gunray is planning to take over the peaceful world of Naboo. Jedi Knights Qui-Gon Jinn and Obi-Wan Kenobi are sent to confront the leaders. But not everything goes to plan. The two Jedi escape, and along with their new Gungan friend, Jar Jar Binks head to Naboo to warn Queen Amidala, but droids have already started to capture Naboo and the Queen is not safe there. Eventually, they land on Tatooine, where they become friends with a young boy known as Anakin Skywalker. Qui-Gon is curious about the boy, and sees a bright future for him. The group must now find a way of getting to Coruscant and to finally solve this trade dispute, but there is someone else hiding in the shadows. Are the Sith really extinct? Is the Queen really who she says she is? And what's so special about this young boy?

 
http://cdn.piczend.com/images/K6f4mEYI/xslvvzqlnmjzxdfk3wpqunguk.png

 
http://cdn.piczend.com/images/K6f4mEYI/lpwqevew6zswguasdzf65gzrv.png

 
http://cdn.piczend.com/images/K6f4mEYI/gbzmw9ybvffhacezk1vf1e8rk.png


Comments

Thank you!
thanks VIFY, would you please upload Star Wars: Episode I - The Phantom Menace 3D please?
i am waiting for it and i can't find it anywhere
V=10 A=10 M=10 Thanks!SEEDING!!!

General
Complete name : Star.Wars.Episode.1.The.Phantom.Menace.1999.1080p.BrRip.x264.BOKUTOX.YIFY.mp4
Format : MPEG-4
Format profile : Base Media
Codec ID : isom
File size : 1.80 GiB
Duration : 2h 16mn
Overall bit rate mode : Variable
Overall bit rate : 1 893 Kbps
Encoded date : UTC 2013-02-22 08:21:45
Tagged date : UTC 2013-02-22 08:21:45

Video
ID : 1
Format : AVC
Format/Info : Advanced Video Codec
Format profile : [email protected]
Format settings, CABAC : Yes
Format settings, ReFrames : 5 frames
Codec ID : avc1
Codec ID/Info : Advanced Video Coding
Duration : 2h 16mn
Bit rate : 1 798 Kbps
Maximum bit rate : 15.3 Mbps
Width : 1 920 pixels
Height : 816 pixels
Display aspect ratio : 2.35:1
Frame rate mode : Constant
Frame rate : 23.976 fps
Color space : YUV
Chroma subsampling : 4:2:0
Bit depth : 8 bits
Scan type : Progressive
Bits/(Pixel*Frame) : 0.048
Stream size : 1.71 GiB (95%)
Title : Wars.Episode.1.The.Phantom.Menace.1999.1080p.BluRay.xnHD.x264-NhaNc3.mkv.264#trackID=1:[email protected]
Writing library : x264 core 129 r2245 bc13772
Encoding settings : cabac=1 / ref=5 / deblock=1:0:0 / analyse=0x3:0x133 / me=umh / subme=9 / psy=1 / psy_rd=1.00:0.00 / mixed_ref=1 / me_range=16 / chroma_me=1 / trellis=2 / 8x8dct=1 / cqm=0 / deadzone=21,11 / fast_pskip=1 / chroma_qp_offset=-2 / threads=12 / lookahead_threads=2 / sliced_threads=0 / nr=0 / decimate=1 / interlaced=0 / bluray_compat=0 / constrained_intra=0 / bframes=8 / b_pyramid=2 / b_adapt=2 / b_bias=0 / direct=3 / weightb=1 / open_gop=0 / weightp=2 / keyint=240 / keyint_min=23 / scenecut=40 / intra_refresh=0 / rc_lookahead=60 / rc=2pass / mbtree=1 / bitrate=1798 / ratetol=1.0 / qcomp=0.60 / qpmin=10 / qpmax=51 / qpstep=4 / cplxblur=20.0 / qblur=0.5 / ip_ratio=1.40 / aq=1:1.00
Encoded date : UTC 2013-02-22 08:21:45
Tagged date : UTC 2013-02-22 08:23:02

Audio
ID : 2
Format : AAC
Format/Info : Advanced Audio Codec
Format profile : LC
Codec ID : 40
Duration : 2h 16mn
Bit rate mode : Variable
Bit rate : 92.0 Kbps
Maximum bit rate : 97.6 Kbps
Channel(s) : 2 channels
Channel positions : Front: L R
Sampling rate : 48.0 KHz
Compression mode : Lossy
Stream size : 89.6 MiB (5%)
Language : English
Encoded date : UTC 2013-02-21 19:15:55
Tagged date : UTC 2013-02-22 08:23:02

Are the subtitles in this torrent for the whole movie, or just that parts where they aren't speaking english?
don't know y but this torrent will not download with android app... others do just not this one...
I deleted the subtitles before realising I might need them when foreign languages are spoken. (Like Anakin speaking to Watto). Is there anywhere I can torrent them separately?
Great torrent YIFY! Thank you. Just wondering if you could hard code the subs so I dont have to watch all the subs!
Thanks
Thanks, RBSNLA. Yify can never seem to post this info. How hard is it to copy paste?
WTF YIFY???!!!

This has the same "THUNK!" at the beginning of the file as the other two movies. I've never experience such fuckups from you before!
Who the fuck dl's star wars WITH 2 CHANNEL AUDIO? This isn't 1977 YIFY get with the program
ertpecs at 2015-11-20 22:13 CET:
Who the fuck dl's star wars WITH 2 CHANNEL AUDIO? This isn't 1977 YIFY get with the program


i hear you there, i used to be so happy with yify until i dug a little deeper into what i was watching from him, now im just disappointed
xlnt tx